Jul 30, 2016

Bajirao Mastani 2015 BluRay 720p X264 AAC Hon3y Eng Arabic Sub For Deepika Padukone

Posted by   on

Bajirao Mastani 2015 BluRay 720p X264 AAC Hon3y 
Eng Arabic Sub For Deepika Padukone
Deepika Padukone as Mastani
Ranveer Singh as Bajirao I
Priyanka Chopra as Kashibai
Tanvi Azmi as Radhabai
Milind Soman as Ambaji Pant
Vaibbhav Tatwawdi as Chimaji Appa
Ayush Tandon as Balaji Baji Rao (alias Nana Saheb)
Mahesh Manjrekar as Chhattrapati Shahu
 


Format : Matroska
Format version : Version 4 / Version 2
File size : 3.01 GiB
Duration : 2h 38mn
Overall bit rate : 2 731 Kbps

Video
ID : 1
Format : AVC
Format/Info : Advanced Video Codec
Format profile : High@L4.1
Format settings, CABAC : Yes
Format settings, ReFrames : 8 frames
Codec ID : V_MPEG4/ISO/AVC
Duration : 2h 38mn
Bit rate : 2 452 Kbps
Width : 1 280 pixels
Height : 536 pixels
Display aspect ratio : 2.40:1
Frame rate mode : Constant
Frame rate : 24.000 fps

Audio
ID : 2
Format : AAC
Format/Info : Advanced Audio Codec
Format profile : LC
Codec ID : A_AAC
Duration : 2h 38mn
Bit rate : 256 Kbps
Channel(s) : 6 channels
Channel positions : Front: L C R, Side: L R, LFE
Sampling rate : 48.0 KHz

Text #1
ID : 3
Format : PGS
Muxing mode : zlib
Codec ID : S_HDMV/PGS
Codec ID/Info : Picture based subtitle format used on BDs/HD-DVDs
Duration : 2h 29mn
Bit rate : 13.0 Kbps
Count of elements : 2278
Stream size : 14.0 MiB (0%)
Default : Yes
Forced : No

Text #2
ID : 4
Format : PGS
Muxing mode : zlib
Codec ID : S_HDMV/PGS
Codec ID/Info : Picture based subtitle format used on BDs/HD-DVDs
Duration : 2h 29mn
Bit rate : 9 632 bps
Count of elements : 2266
Stream size : 10.3 MiB (0%)
Default : No
Forced : No



Download Link 3.01GB
OR


Watch Online with Eng Arabic Sub
English Subtitles : Click Here

Arabic Subtitles
IDX  : Click Here

SRT  : Click Here