Jun 9, 2015

Amar Akbar Anthony 1979 DVDRip X264 AC3 ALICE TDBB Eng Arabic Sub For Amitabh Bachchan

Posted by   on

Amar Akbar Anthony 1979 DVDRip X264 AC3 
ALICE TDBB Eng Arabic Sub
For Amitabh Bachchan
001 Amar Akbar Anthony 1977 poster
Amitabh Bachchan ...  Anthony Gonzalves
Vinod Khanna  ...  Inspector Amar Khanna
Rishi Kapoor ...  Akbar Ilhabadi / Raju
Neetu Singh ...  Dr. Salma Ali
Parveen Babi ...  Jenny
Shabana Azmi ...  Laxmi
Nirupa Roy ...  Bharati
Pran ...  Kishanlal
Jeevan ...  Robert
Yusuf Khan ...  Zebisko (as Yusuf)
Mukri ...  Taiyyab Ali
Nasir Hussain ...  Catholic Priest
Kamal Kapoor ...  Superintendant Khanna
Hercules ...  Zebisko
Shivraj ...  Mr. Ilahabadi

tamercome_blogspot_com.jpg (280×77)

02 Amar Akbar Anthony 1977 poster
03 Amar Akbar Anthony 1977 poster
04 Amar Akbar Anthony 1977 poster
05 Amar Akbar Anthony 1977 poster
06 Amar Akbar Anthony 1977 poster
07 Amar Akbar Anthony 1977 poster
08 Amar Akbar Anthony 1977 poster
09 Amar Akbar Anthony 1977 poster
10 Amar Akbar Anthony 1977 poster
11 Amar Akbar Anthony 1977 poster
12 Amar Akbar Anthony 1977 poster

13 Amar Akbar Anthony 1977 poster
14 Amar Akbar Anthony 1977 poster
15 Amar Akbar Anthony 1977 poster
16 Amar Akbar Anthony 1977 poster
17 Amar Akbar Anthony 1977 poster
18 Amar Akbar Anthony 1977 poster
19 Amar Akbar Anthony 1977 poster
20 Amar Akbar Anthony 1977 poster
21 Amar Akbar Anthony 1977 poster
22 Amar Akbar Anthony 1977 poster
23 Amar Akbar Anthony 1977 poster
24 Amar Akbar Anthony 1977 poster
25 Amar Akbar Anthony 1977 poster


01 Amar Akbar Anthony 1979 DVDRip x264 AC3 ALICE
02 Amar Akbar Anthony 1979 DVDRip x264 AC3 ALICE
03 Amar Akbar Anthony 1979 DVDRip x264 AC3 ALICE
04 Amar Akbar Anthony 1979 DVDRip x264 AC3 ALICE
05 Amar Akbar Anthony 1979 DVDRip x264 AC3 ALICE
06 Amar Akbar Anthony 1979 DVDRip x264 AC3 ALICE
07 Amar Akbar Anthony 1979 DVDRip x264 AC3 ALICE
08 Amar Akbar Anthony 1979 DVDRip x264 AC3 ALICE
09 Amar Akbar Anthony 1979 DVDRip x264 AC3 ALICE

640*480
Format : Matroska
Format version : Version 2
File size : 1.46 GiB
Duration : 2h 40mn
Overall bit rate mode : Variable
Overall bit rate : 1 305 Kbps
Encoded date : UTC 2015-03-12 06:00:21
Writing application : mkvmerge v4.0.0 ('The Stars were mine'blnk.png gemaakt op Jun 6 2010 16:18:42
Writing library : libebml v1.0.0 + libmatroska v1.0.0

Video
ID : 1
Format : AVC
Format/Info : Advanced Video Codec
Format profile : High@L4.1
Format settings, CABAC : Yes
Format settings, ReFrames : 3 frames
Codec ID : V_MPEG4/ISO/AVC
Duration : 2h 40mn
Bit rate mode : Variable
Bit rate : 1 139 Kbps
Maximum bit rate : 40.0 Mbps
Width : 640 pixels
Height : 480 pixels
Display aspect ratio : 4:3
Frame rate mode : Constant
Frame rate : 29.970 fps
Color space : YUV
Chroma subsampling : 4:2:0
Bit depth : 8 bits
Scan type : Progressive
Bits/(Pixel*Frame) : 0.124
Stream size : 1.25 GiB (86%)

Language : Hindi
Default : No
Forced : No
Color primaries : BT.709
Transfer characteristics : BT.709
Matrix coefficients : BT.709

Audio
ID : 2
Format : AC-3
Format/Info : Audio Coding 3
Mode extension : CM (complete main)
Format settings, Endianness : Big
Codec ID : A_AC3
Duration : 2h 40mn
Bit rate mode : Constant
Bit rate : 160 Kbps
Channel(s) : 2 channels
Channel positions : Front: L R
Sampling rate : 48.0 KHz
Bit depth : 16 bits
Compression mode : Lossy
Stream size : 183 MiB (12%)
Default : Yes


English Subtitles : Click Here

ترجمة عربية أحترافية للمترجم المتميز أخى الغالى حسام صقر
Arabic Subtitles  IDX : Click Here

OR SRT
# ترجمة أحترافية : أمير سامي || مراجعة: غ.الجسمي #
Arabic Subtitles  SRT : Click Here