May 29, 2015

Karan Arjun 1995 DVDRip 720p x264 Dual Audio MSubs DDR For Shahrukh Khan . Kajol . Salman Khan

Posted by   on

Karan Arjun 1995 DVDRip 720p Dual Audio MSubs DDR 
For Shahrukh Khan . Kajol . Salman Khan
08 Karan Arjun 1995 DVDRip 720p X264 AC3 ESub BY
Shahrukh Khan as Arjun Singh/Vijay
    Salman Khan as Karan Singh/Ajay
    Kajol as Sonia Saxena
Mamta Kulkarni as Bindiya
Amrish Puri as Thakur Durjan Singh
Raakhee as Durga Singh
Ranjeet as Mr.Saxena
Johnny Lever as Linghaiyya
    Aashif Sheikh as Suraj Singh (son of Thakur Durjan Singh)
    Ashok Saraf as Munshiji
    Jack Gaud as Shamsher Singh
    Arjun as Nahar Singh

Source: REM DVD9 @ DDR
Format : Matroska
File size : 3.98 GiB
Duration : 2h 48mn
Overall bit rate : 3 390 Kbps
Chapters : YES

Video
Format : AVC
Format profile : High@L4.1
Width : 1 280 pixels
Height : 544 pixels
Display aspect ratio : 2.35:1
Frame rate mode : Constant
Frame rate : 25.000 fps

Audio-1
Format : AC-3
Bit rate mode : Constant
Bit rate : 192 Kbps
Channel(s) : 2 channels
Channel positions : Front: L R
Sampling rate : 48.0 KHz
Bit depth : 16 bits
Stream size : 231 MiB
Language : Hindi

Audio-2
Format : AC-3
Bit rate mode : Constant
Bit rate : 192 Kbps
Channel(s) : 2 channels
Channel positions : Front: L R
Sampling rate : 48.0 KHz
Bit depth : 16 bits
Stream size : 231 MiB
Language : German

tamercome_blogspot_com.jpg (280×77)

01 Karan Arjun 1995 DVDRip 720p X264 AC3 ESub BY
02 Karan Arjun 1995 DVDRip 720p X264 AC3 ESub BY
03 Karan Arjun 1995 DVDRip 720p X264 AC3 ESub BY
04 Karan Arjun 1995 DVDRip 720p X264 AC3 ESub BY
05 Karan Arjun 1995 DVDRip 720p X264 AC3 ESub BY
06 Karan Arjun 1995 DVDRip 720p X264 AC3 ESub BY
07 Karan Arjun 1995 DVDRip 720p X264 AC3 ESub BY
08 Karan Arjun 1995 DVDRip 720p X264 AC3 ESub BY
09 Karan Arjun 1995 DVDRip 720p X264 AC3 ESub BY
10 Karan Arjun 1995 DVDRip 720p X264 AC3 ESub BY
11 Karan Arjun 1995 DVDRip 720p X264 AC3 ESub BY
12 Karan Arjun 1995 DVDRip 720p X264 AC3 ESub BY
13 Karan Arjun 1995 DVDRip 720p X264 AC3 ESub BY
14 Karan Arjun 1995 DVDRip 720p X264 AC3 ESub BY
15 Karan Arjun 1995 DVDRip 720p X264 AC3 ESub BY
16 Karan Arjun 1995 DVDRip 720p X264 AC3 ESub BY
17 Karan Arjun 1995 DVDRip 720p X264 AC3 ESub BY
18 Karan Arjun 1995 DVDRip 720p X264 AC3 ESub BY
19 Karan Arjun 1995 DVDRip 720p X264 AC3 ESub BY
20 Karan Arjun 1995 DVDRip 720p X264 AC3 ESub BY
21 Karan Arjun 1995 DVDRip 720p X264 AC3 ESub BY
22 Karan Arjun 1995 DVDRip 720p X264 AC3 ESub BY
23 Karan Arjun 1995 DVDRip 720p X264 AC3 ESub BY
24 Karan Arjun 1995 DVDRip 720p X264 AC3 ESub BY
25 Karan Arjun 1995 DVDRip 720p X264 AC3 ESub BY
26 Karan Arjun 1995 DVDRip 720p X264 AC3 ESub BY



01 Karan Arjun 1995 DVDRip 720p x264 Dual Audio
02 Karan Arjun 1995 DVDRip 720p x264 Dual Audio
03 Karan Arjun 1995 DVDRip 720p x264 Dual Audio
04 Karan Arjun 1995 DVDRip 720p x264 Dual Audio
05 Karan Arjun 1995 DVDRip 720p x264 Dual Audio
06 Karan Arjun 1995 DVDRip 720p x264 Dual Audio
07 Karan Arjun 1995 DVDRip 720p x264 Dual Audio
08 Karan Arjun 1995 DVDRip 720p x264 Dual Audio
09 Karan Arjun 1995 DVDRip 720p x264 Dual Audio
10 Karan Arjun 1995 DVDRip 720p x264 Dual Audio
11 Karan Arjun 1995 DVDRip 720p x264 Dual Audio
12 Karan Arjun 1995 DVDRip 720p x264 Dual Audio
13 Karan Arjun 1995 DVDRip 720p x264 Dual Audio
14 Karan Arjun 1995 DVDRip 720p x264 Dual Audio
15 Karan Arjun 1995 DVDRip 720p x264 Dual Audio
16 Karan Arjun 1995 DVDRip 720p x264 Dual Audio
17 Karan Arjun 1995 DVDRip 720p x264 Dual Audio
18 Karan Arjun 1995 DVDRip 720p x264 Dual Audio
19 Karan Arjun 1995 DVDRip 720p x264 Dual Audio

Download Link 3.98 GB
http://depositfiles.com/files/er0dgbiiu

ترجمة عربية أحترافية كاملة بالاغانى
للمترجم القدير عملاق ترجمات بوليوود 
أخى و صديقى الغالى محمد عبد المنعم

Arabic Subtitles 720p DDR Full: Click Here

ملحوظة هذة النسخة جديدة عن السابقة و هى افضل كثيرا من حيث تركيز الالوان و وضوحها  و ايضاح  و نقاء الصورة  و الجودة اعلى كثيرا