Oct 28, 2013

BA Pass 2013 DVDRip XviD 1CD Eng Subs

Posted by   on

BA Pass 2013 DVDRip XviD 1CD Eng Subs
Cast
    Shilpa Shukla as Sarika
    Shadab Kamal as Mukesh
    Rajesh Sharma as Khanna

    Dibyendu Bhattacharya as Johnny
    Vijay Kaushik as Phupha ji
    Anula Navlekar as Chotti
    Happy Ranjit as Phd
    Amit Sharma as Amit
    Geeta Aggarwal Sharma as Bua Ji
    Raveena Sharma as Sonu

Video
ID : 0
Format : MPEG-4 Visual
Format profile : Advanced Simple@L5
Format settings, BVOP : 1
Format settings, QPel : No
Format settings, GMC : No warppoints
Format settings, Matrix : Default (H.263)
Muxing mode : Packed bitstream
Codec ID : XVID
Codec ID/Hint : XviD
Duration : 1h 41mn
Bit rate : 882 Kbps
Width : 640 pixels
Height : 272 pixels
Display aspect ratio : 2.35:1
Frame rate : 29.970 fps
Color space : YUV
Chroma subsampling : 4:2:0
Bit depth : 8 bits
Scan type : Progressive
Compression mode : Lossy
Bits/(Pixel*Frame) : 0.169
Stream size : 637 MiB (91%)
Writing library : XviD 1.2.1 (UTC 2008-12-04)

Audio
ID : 1
Format : MPEG Audio
Format version : Version 1
Format profile : Layer 3
Mode : Joint stereo
Mode extension : MS Stereo
Codec ID : 55
Codec ID/Hint : MP3
Duration : 1h 41mn
Bit rate mode : Constant
Bit rate : 80.0 Kbps
Channel(s) : 2 channels
Sampling rate : 32.0 KHz
Compression mode : Lossy
Stream size : 57.8 MiB (8%)
Alignment : Aligned on interleaves
Interleave, duration : 133 ms (4.00 video frames)

001 BA Pass 2013 DVDRip Xvi D 1 CD ESubs BY tamerc
002 BA Pass 2013 DVDRip Xvi D 1 CD ESubs BY tamerc
003 BA Pass 2013 DVDRip Xvi D 1 CD ESubs BY tamerc
004 BA Pass 2013 DVDRip Xvi D 1 CD ESubs BY tamerc
005 BA Pass 2013 DVDRip Xvi D 1 CD ESubs BY tamerc
006 BA Pass 2013 DVDRip Xvi D 1 CD ESubs BY tamerc
007 BA Pass 2013 DVDRip Xvi D 1 CD ESubs BY tamerc
008 BA Pass 2013 DVDRip Xvi D 1 CD ESubs BY tamerc
009 BA Pass 2013 DVDRip Xvi D 1 CD ESubs BY tamerc
010 BA Pass 2013 DVDRip Xvi D 1 CD ESubs BY tamerc
011 BA Pass 2013 DVDRip Xvi D 1 CD ESubs BY tamerc
012 BA Pass 2013 DVDRip Xvi D 1 CD ESubs BY tamerc
013 BA Pass 2013 DVDRip Xvi D 1 CD ESubs BY tamerc
014 BA Pass 2013 DVDRip Xvi D 1 CD ESubs BY tamerc
015 BA Pass 2013 DVDRip Xvi D 1 CD ESubs BY tamerc
016 BA Pass 2013 DVDRip Xvi D 1 CD ESubs BY tamerc
017 BA Pass 2013 DVDRip Xvi D 1 CD ESubs BY tamerc

Download Link 700MB : Click Here

English Subtitles : Click Here